#TITLE:R176;
#SUBTITLE:;
#ARTIST:Cranky;
#TITLETRANSLIT:;
#SUBTITLETRANSLIT:;
#ARTISTTRANSLIT:;
#CREDIT:Tony;
#BANNER:R176_banner.png;
#BACKGROUND:R176_bg.jpg;
#LYRICSPATH:;
#CDTITLE:R176.png;
#MUSIC:R176.ogg;
#OFFSET:1.240;
#SAMPLESTART:31.460;
#SAMPLELENGTH:11.960;
#SELECTABLE:YES;
#DISPLAYBPM:190.000;
#BPMS:0.000=95.000,20.000=190.000,59.500=188.000,63.500=170.000,64.500=120.000,64.750=105.000,65.000=90.000,65.250=45.000,65.750=190.021,137.000=95.000,138.750=190.000,139.250=95.000,141.000=190.000,163.000=95.000,165.500=379.998,166.500=190.000,179.000=379.999,183.000=190.000,195.000=285.000,201.000=190.000,229.000=285.000,235.000=190.000,279.000=95.000,281.000=190.000;
#STOPS:65.750=1.140
,67.000=0.220
,68.500=0.080
,166.500=0.160
,179.000=0.080
,179.500=0.080
,180.000=0.080
,180.500=0.080
,181.000=0.080
,181.500=0.080
,182.000=0.080
,182.500=0.080
,295.500=0.100
,295.750=0.220
,310.000=0.160
,310.500=0.080
,310.750=0.080
;
#BGCHANGES:;
// cache tags:
#FIRSTBEAT:3.500;
#LASTBEAT:391.000;
#SONGFILENAME:Songs/Music V.I.P ^_^/R176/R176.sm;
#HASMUSIC:1;
#HASBANNER:1;
#MUSICLENGTH:136.019;
// end cache tags

//---------------dance-single - ----------------
#NOTES:
     dance-single:
     :
     Hard:
     21:
     1.000,1.000,1.000,0.478,0.823,903.000,356.000,65.000,0.000,76.000:
0000
0000
0000
0000
0000
0000
0000
0000
0000
0000
0000
0000
0000
0000
0100
0010
,
0101
0000
0000
0000
0000
0000
0000
0000
0010
0000
0000
0000
0000
0000
0000
0000
0001
0000
0000
0000
0010
0000
0000
0000
0100
0000
0000
0000
1000
0000
0000
0010
0001
0000
0000
0000
0000
0000
0000
0000
0100
0000
0000
0000
0000
0000
0000
0000
0010
0000
0000
0000
0000
0000
0000
0000
1000
0000
0000
0000
0000
0000
0000
0000
,
1100
0000
0001
0000
0010
0000
1100
0000
0101
0000
1000
0010
0001
0010
0100
1000
,
0110
0000
1000
0010
1000
0100
0000
0010
0010
0000
0100
1000
0100
0001
0010
0001
,
1010
0000
0000
0000
0000
0000
0000
0000
0100
0000
0000
0000
0010
0000
0000
0000
0000
0000
0000
0000
0010
0000
0000
0000
0000
0000
0000
0000
0001
0000
0000
0010
0001
0000
0000
0000
0100
0000
0010
0000
1000
0000
0001
0000
0100
0000
0010
0000
1000
0000
0001
0000
0100
0000
0010
0000
1000
0000
0001
0000
0100
0000
0010
0000
,
1001
0000
0000
0000
0000
0000
0000
0000
0011
0000
0000
0000
0000
0000
0000
0100
0001
0000
0000
0000
0010
0000
0000
0000
0100
0000
0000
0000
1000
0000
0000
0010
,
0001
0010
0100
1000
,
1100
0101
0010
1000
,
1010
0000
1000
0010
0001
0010
0100
1000
,
0110
0000
0100
0010
0100
0001
0000
0001
,
0011
0000
0100
1000
0010
1000
0100
0001
,
0011
0000
1000
0100
1000
0010
0001
0010
,
0200
1000
0010
0001
0010
0000
0301
0000
,
0111
0000
0000
0000
0100
0000
1000
0100
,
1110
0000
0000
0000
0010
0000
0000
0001
,
2212
0000
0010
3000
0010
0300
0100
0000
,
2000
0000
0000
0000
0000
0000
0000
0000
0000
0000
0000
0000
0000
0000
0000
3003
0010
0000
0000
0000
0100
0000
0000
0000
0010
0000
0000
0000
0001
0000
0000
0000
,
0010
0000
0001
0000
0011
0100
0010
1000
0010
0100
0001
0100
0010
1000
0010
0100
,
0001
0100
0001
0010
1100
0001
0100
0010
1001
0010
0100
0001
1100
0010
1000
0010
,
0101
0010
1001
0100
1011
0000
0100
0000
0110
0000
0010
0000
1001
0010
0100
0010
,
1001
0000
1000
0000
1100
0000
0010
0000
0101
0000
0001
0000
1100
0010
0100
0010
,
1001
0000
0001
0000
0011
0000
1000
0000
2100
0000
0001
0000
3101
0010
0100
0010
,
1001
0000
0001
0000
0120
0000
0100
0000
1130
0000
0010
0000
0010
0100
1000
0100
,
1010
0000
0011
0010
1101
0000
0010
0000
0101
0000
1000
0000
1100
0010
0001
0010
,
0101
0000
1000
0000
2100
0000
0010
0000
3101
0000
0001
0000
0021
1000
0100
1000
,
0131
0000
0100
0000
1210
0000
0001
0001
1310
0000
0100
0100
1010
0000
0010
0010
,
0101
0000
0100
0010
1001
0000
1010
0000
1100
0000
0101
0010
1100
0011
1100
0011
,
0100
0000
0011
1000
0100
0000
0011
1000
0100
0000
0011
1000
0100
0000
0010
0001
,
1100
0000
0010
0001
1100
0000
0010
0001
1100
0000
0100
0010
1001
0100
0010
0100
,
1001
0000
0001
0010
0101
0000
0100
0010
0101
0000
1010
0100
0001
0000
0001
0010
,
1100
0000
0101
0010
1001
0000
0001
0100
0011
0000
1100
0010
0100
0000
0011
0100
,
1000
0000
0010
0001
1110
0000
1010
0100
0010
0000
0011
0100
1010
0001
0110
0001
,
1100
0000
0100
0100
1010
0000
0010
0010
0101
0000
0001
0010
0101
1000
0010
1000
,
0110
0000
0101
0000
0010
0000
0110
0000
1000
0000
0100
0010
1001
0010
0001
0010
,
0101
0000
0000
0000
1100
0000
0010
0000
2001
0000
0001
0010
0100
0000
0010
0000
0010
0000
0010
0000
3010
0000
1000
0000
0000
0000
0111
0000
0001
0000
0010
0000
,
0100
1001
1100
0110
0011
0110
0110
0000
,
1010
0000
0110
1100
0101
0011
0110
0000
,
1011
0000
1010
1100
0011
0110
1011
1001
,
0000
1001
0000
0000
1001
0000
1000
0000
0100
0000
0010
0000
0001
0000
0000
0000
,
0111
0000
1001
0011
1100
0110
0011
0000
,
1110
0000
0000
0000
0010
0000
1000
0000
0100
0000
0010
0000
1000
0200
0302
0203
,
0320
0230
2300
3200
0302
0023
2000
3000
0030
0000
0202
0000
1323
0000
0000
0030
,
1020
0000
0000
0030
1001
0000
1001
0000
1010
0000
1100
0000
1001
0000
1001
0000
,
0011
0000
0101
0000
1010
0000
1010
0000
0210
0000
0000
0300
0201
0000
0000
0300
,
0201
0000
0000
0300
0201
0000
1001
0300
1010
0000
1100
0000
2001
0000
3001
0000
,
0201
0000
0010
0300
2001
0000
0001
3000
0201
0000
0001
0300
0211
0000
0000
0300
,
0210
0000
0000
0300
1101
0000
1101
0000
0101
0000
0010
0000
1011
0000
1000
0100
,
0011
0000
0110
0000
1010
0000
1010
0000
0210
0000
0000
0000
1320
0000
0000
0030
,
0120
0000
0000
0000
0000
0000
1030
0000
0111
0000
0000
0000
0101
0000
0010
0000
1101
0000
0000
0000
0110
0000
0000
0000
0001
0000
0000
1000
0000
0000
0010
0000
,
0000
1000
0000
0000
0100
0000
0000
1000
0000
0000
0010
0000
0000
0001
0000
0000
1000
0000
0000
0001
0000
0000
0100
0000
0000
1000
0000
0000
0010
0000
0000
1000
,
0000
0000
0010
0000
0000
0001
0000
0000
1100
0000
0000
0000
0010
0000
0000
0000
0101
0000
0000
0000
0010
0000
0000
0000
0101
0000
0000
0000
1000
0000
0100
0000
,
1010
0000
1100
0010
0101
0000
0100
0000
1010
0000
0001
0000
1011
0000
0110
0000
,
1201
0000
0000
0000
1310
0000
0100
0000
1010
0000
0001
0000
0011
0000
1001
0010
,
0101
0000
0100
0010
1001
0000
0110
0000
1011
0000
1001
0000
0111
0000
1110
0000
,
0121
0000
1000
1000
0131
0000
1100
0000
0110
0000
1100
0000
0110
0000
0011
0010
,
0110
0000
0100
0000
1010
0000
0001
0000
0011
0000
1100
0000
0110
0001
1010
0100
,
1001
0000
0000
0000
0011
0000
1000
0100
0011
0000
0010
0000
0110
0000
0100
0100
,
1010
0000
0000
0000
0010
0000
0000
0000
0001
0000
0000
0010
0000
0000
0100
0000
0000
1000
0000
0000
0100
0000
0000
0010
0000
0000
0001
0000
0000
0010
0000
0000
,
0100
0000
0000
1000
0000
0000
0100
0000
0000
0010
0000
0000
0001
0000
0000
0100
0000
0000
0001
0000
0000
0100
0000
0000
1001
0000
0000
0000
1000
0000
0100
0000
,
1000
0000
1000
0000
1000
0000
1000
0000
1000
0000
0001
0000
0110
0000
0110
0001
,
0110
0000
0100
0000
0200
0000
0010
0300
0110
0000
0001
0000
0111
0000
0001
0010
,
0001
0000
0001
0000
0001
0000
0001
0000
0001
0000
0111
0000
1110
0000
0100
0010
,
1001
0000
0010
0100
1010
0000
0100
0010
0101
0000
0010
0100
1010
0000
0001
0000
,
0111
0000
1000
0000
1110
0000
0001
0000
0111
0000
0100
0000
1110
0000
0100
0010
,
1101
0000
0001
0010
1101
0000
1000
0000
1110
0000
0001
0000
0111
0000
0010
0100
,
1011
0000
1100
0010
0001
0000
0100
0001
1100
0010
0100
0010
0101
0000
0010
0100
,
1010
0000
0001
0010
0101
0000
1010
0100
0001
0000
0010
0001
1110
0000
1010
0100
,
0010
0000
0011
0100
1010
0001
0110
0001
1100
0000
0100
0100
1010
0000
0010
0010
,
0101
0000
0001
0010
0101
1000
0010
1000
0110
0000
0101
0000
0010
0000
0110
0000
,
1000
0000
0100
0010
1001
0010
0001
0010
0101
0000
1100
0010
2000
0000
0100
0000
,
0100
0000
0000
0010
3100
0010
0100
0010
1001
0000
0000
0000
0010
0000
0000
0000
0100
0000
0000
0000
2000
0000
0000
0000
0000
0000
0000
0000
3002
0000
0000
0000
,
0000
0023
0000
1030
2000
0000
3100
0200
,
0011
0000
0311
1100
0012
0000
0203
0000
0320
0000
2030
0000
0110
0000
3002
0000
,
0000
0000
0023
0000
1130
0000
0010
0000
1100
0000
1000
0001
1010
0000
0020
0000
,
1031
0000
0010
0000
0101
0000
1000
0000
1001
0010
0100
0010
0101
0000
0010
0000
,
1001
0000
0100
0000
0011
0000
1000
0000
1100
0000
0010
1001
0110
0000
1100
0000
,
0101
0010
0101
1100
0011
0100
1010
0001
,
0011
0000
1100
0011
1100
0000
0101
1010
0101
0000
1100
0010
1001
0000
0100
0000
,
0110
0000
0010
0000
1001
0010
0100
0010
1001
0000
1000
0000
1100
0000
0010
0000
,
0101
0000
0001
0000
1100
0010
0100
0010
1001
0000
0001
0000
0011
0000
1000
0000
,
2100
0000
0001
0000
3101
0010
0100
0010
1001
0000
0001
0000
0120
0000
0100
0000
,
1130
0000
0010
0000
0010
0100
1000
0100
1010
0000
0011
0010
1101
0000
0010
0000
,
0101
0000
1000
0000
1100
0010
0001
0010
0101
0000
1000
0000
2100
0000
0010
0000
,
3101
0000
0001
0000
0021
1000
0100
1000
0131
0000
0100
0000
1210
0000
0001
0001
,
1310
0100
1010
0001
0011
1100
0210
1001
,
1310
0000
1001
0000
1100
0010
0100
0011
1100
0000
1000
0100
0011
0000
0100
0000
,
1010
0000
0001
0000
1010
0001
0100
1000
0110
0000
0001
0000
0110
0000
1100
0000
,
0110
0000
0100
0000
1100
0010
0101
0010
1001
0000
1001
0000
0110
0000
1000
0000
,
0012
0000
0100
0000
0013
0100
1000
0100
1010
0000
0001
0000
0021
0000
1000
0100
,
1031
0000
0100
0000
1010
0000
0011
0100
1010
0000
0100
0010
1101
0000
0110
0000
,
0011
0000
1010
0000
1001
0100
0010
0100
1001
0000
1010
0000
1210
0000
0010
0000
,
1310
0000
0001
0000
2110
0000
0101
0010
3001
0000
0010
0100
1011
0000
0100
0000
,
1010
0000
0001
0000
0101
0010
1001
0010
0101
0000
1001
0000
0111
0000
1110
0000
,
0111
0000
1110
0000
0111
1000
0110
1000
0101
0000
0120
0000
0000
0000
0000
0000
,
0000
1000
0100
0000
0001
0100
0000
0100
,
1000
0000
1000
0100
0000
0000
0001
0000
,
0001
0100
0000
0000
0100
0000
0000
1000
,
0000
0000
0001
0000
0100
1000
1131
0000
;
